Supplive

Comunidad
 
ÍndiceCalendarioFAQBuscarMiembrosGrupos de UsuariosRegistrarseConectarse

Comparte | 
 

 Marte: Operación Rescate (2015) [BR-LiNE 720p/Castellano] [Aventura espacial] [MEGA]

Ver el tema anterior Ver el tema siguiente Ir abajo 
AutorMensaje
BOT
Usuario Registrado
avatar

Mensajes : 19

MensajeTema: Marte: Operación Rescate (2015) [BR-LiNE 720p/Castellano] [Aventura espacial] [MEGA]   Lun Dic 28, 2015 5:53 pm



Sinopsis:
En el transcurso de una misión tripulada a Marte, el astronauta Mark Watney es dado por muerto y abandonado por sus compañeros de tripulación tras una violenta tormenta. Sin embargo, Watney sobrevive y se encuentra solo y abandonado en ese planeta hostil. Con escasos suministros, Watney deberá recurrir a su ingenio, humor y espíritu de supervivencia para subsistir y encontrar una forma de comunicar a la Tierra que sigue vivo. A millones de kilómetros, la NASA y un equipo internacional de científicos trabajan sin descanso para traer al “marciano” de vuelta, al mismo tiempo que sus compañeros de tripulación planean una temeraria, si no imposible, misión de rescate. Mientras todos estos acontecimientos se desarrollan, el mundo entero se une para pedir que Watney regrese sano y salvo.

Ficha Técnica:
Título original: The Martian
Otos Titulos: Marte / Marte: Operación Rescate / Misión Rescate
Año: 2015
Duración: 142 min.
País: Estados Unidos
Director: Ridley Scott
Guión: Drew Goddard (Novela: Andy Weir)
Música: Harry Gregson-Williams
Fotografía: Dariusz Wolski
Reparto: Matt Damon, Jessica Chastain, Kate Mara, Chiwetel Ejiofor, Kristen Wiig, Jeff Daniels, Sebastian Stan, Mackenzie Davis, Michael Peña, Sean Bean, Donald Glover, Aksel Hennie, Mark O'Neal, Brian Caspe
Productora: Twentieth Century Fox / Scott Free
Género: Ciencia ficción | Aventura espacial. Supervivencia. 3-D

Trailer:


Datos Técnicos:
BR-LiNE 720p (x264) | MKV | 1280x532 | 4.24 GB | Castellano LiNE 2.0 HQ 320kbps | SUBTÍTULOS: Incluye forzados en español.

Información
Código:
General
Unique ID                                : 245961837866793600567803181937933732554 (0xB90A86E11C5ACEEC9CF7DD3EE308CACA)
Complete name                            : Marte.BR.LiNE.720p.Castellano.mkv
Format                                   : Matroska
Format version                           : Version 4 / Version 2
File size                                : 4.24 GiB
Duration                                 : 2h 21mn
Overall bit rate                         : 4 279 Kbps
Encoded date                             : UTC 2015-12-24 00:42:55
Writing application                      : mkvmerge v8.5.1 ('Where you lead I will follow') 32bit
Writing library                          : libebml v1.3.3 + libmatroska v1.4.4

Video
ID                                       : 1
Format                                   : AVC
Format/Info                              : Advanced Video Codec
Format profile                           : Main@L3.1
Format settings, CABAC                   : No
Format settings, ReFrames                : 2 frames
Codec ID                                 : V_MPEG4/ISO/AVC
Duration                                 : 2h 21mn
Bit rate                                 : 3 957 Kbps
Width                                    : 1 280 pixels
Height                                   : 532 pixels
Display aspect ratio                     : 2.40:1
Frame rate mode                          : Constant
Frame rate                               : 23.976 (23976/1000) fps
Color space                              : YUV
Chroma subsampling                       : 4:2:0
Bit depth                                : 8 bits
Scan type                                : Progressive
Bits/(Pixel*Frame)                       : 0.242
Stream size                              : 3.92 GiB (92%)
Language                                 : Spanish
Default                                  : Yes
Forced                                   : No
Color range                              : Limited
Color primaries                          : BT.709
Transfer characteristics                 : BT.709
Matrix coefficients                      : BT.709

Audio
ID                                       : 2
Format                                   : MPEG Audio
Format version                           : Version 1
Format profile                           : Layer 3
Mode                                     : Joint stereo
Codec ID                                 : A_MPEG/L3
Codec ID/Hint                            : MP3
Duration                                 : 2h 21mn
Bit rate mode                            : Constant
Bit rate                                 : 320 Kbps
Channel(s)                               : 2 channels
Sampling rate                            : 48.0 KHz
Frame rate                               : 41.667 fps (1152 spf)
Compression mode                         : Lossy
Stream size                              : 324 MiB (7%)
Language                                 : Spanish
Default                                  : Yes
Forced                                   : No

Text
ID                                       : 3
Format                                   : UTF-8
Codec ID                                 : S_TEXT/UTF8
Codec ID/Info                            : UTF-8 Plain Text
Duration                                 : 2h 10mn
Bit rate                                 : 3 bps
Count of elements                        : 94
Stream size                              : 3.32 KiB (0%)
Title                                    : Forzados
Language                                 : Spanish
Default                                  : Yes
Forced                                   : No

Menu
00:00:00.000                             : en:1
00:03:21.000                             : en:2
00:10:07.000                             : en:3
00:15:22.000                             : en:4
00:18:23.000                             : en:5
00:21:32.000                             : en:6
00:24:25.000                             : en:7
00:28:49.000                             : en:8
00:31:33.000                             : en:9
00:34:18.000                             : en:10
00:39:10.000                             : en:11
00:41:18.000                             : en:12
00:46:19.000                             : en:13
00:49:21.000                             : en:14
00:56:11.000                             : en:15
00:59:35.000                             : en:16
01:02:19.000                             : en:17
01:06:48.000                             : en:18
01:09:47.000                             : en:19
01:13:45.000                             : en:20
01:18:32.000                             : en:21
01:22:46.000                             : en:22
01:30:34.000                             : en:23
01:37:23.000                             : en:24
01:43:24.000                             : en:25
01:46:08.000                             : en:26
01:50:11.000                             : en:27
01:54:00.000                             : en:28
01:57:41.000                             : en:29
02:04:33.000                             : en:30
02:10:56.000                             : en:31
02:13:19.000                             : en:32

Capturas:


Descargar Gratis:

Código:
Uploaded |  MEGA | Mas +

http://tomas01.com/index.php?v=2944
Volver arriba Ir abajo
Ver perfil de usuario
 
Marte: Operación Rescate (2015) [BR-LiNE 720p/Castellano] [Aventura espacial] [MEGA]
Ver el tema anterior Ver el tema siguiente Volver arriba 
Página 1 de 1.

Permisos de este foro:No puedes responder a temas en este foro.
Supplive :: Inicio :: Descargas :: Peliculas-
Cambiar a: