Supplive

Comunidad
 
ÍndiceCalendarioFAQBuscarMiembrosGrupos de UsuariosRegistrarseConectarse

Comparte | 
 

 La noche del ratón (2013) [BDRip m720p/Castellano] [Thriller] [España] [MEGA]

Ver el tema anterior Ver el tema siguiente Ir abajo 
AutorMensaje
BOT
Usuario Registrado
avatar

Mensajes : 19

MensajeTema: La noche del ratón (2013) [BDRip m720p/Castellano] [Thriller] [España] [MEGA]   Lun Ene 11, 2016 12:24 pm


Sinopsis:
Sandra ha madrugado, a pesar de las quejas de Álvaro (su novio), porque tiene una reunión de trabajo a la que irá con Jorge, un compañero de trabajo. El trayecto apunta ser apacible, pero las cosas pocas veces suceden como esperamos y en ocasiones la mitad del camino se convierte en el comienzo de una historia diferente. Sandra y Jorge nunca llegarán a la reunión.

Ficha Técnica:
Título original: La noche del ratón
Año: 2013
País: España
Director: David R. Losada
Guión: Rubén Ávila Calvo, David R. Losada
Música: Óscar Ávila Calvo
Fotografía: Peru Galbete
Reparto: Miriam Cabeza, Unai García, Mikel Martínez, Alfonso Torregrossa, Francisco Álvarez, Mario Carreño, Asier Ortega, Tania Aparicio, Luis Pozo, Arantxa Moñux, Garazi Gainberri
Género: Thriller


Trailer:

Datos Técnicos:
BDRip m720p (x264) | MKV | 1280x720 | 1.78 GB | Castellano AC3 2.0 384Kbps


Información:

Código:
General
Unique ID                                : 241498986492115324209208854590321785949 (0xB5AF0351818B4F5E9DE7CAC9CFFAFC5D)
Complete name                            : La.noche.del.raton.m720p.Castellano.mkv
Format                                   : Matroska
Format version                           : Version 4 / Version 2
File size                                : 1.78 GiB
Duration                                 : 1h 20mn
Overall bit rate                         : 3 160 Kbps
Encoded date                             : UTC 2016-01-08 03:13:34 / UTC
Writing application                      : mkvmerge v8.5.1 ('Where you lead I will follow') 32bit
Writing library                          : libebml v1.3.3 + libmatroska v1.4.4 / Lavf55.12.0

Video
ID                                       : 1
Format                                   : AVC
Format/Info                              : Advanced Video Codec
Format profile                           : High@L4.1
Format settings, CABAC                   : Yes
Format settings, ReFrames                : 4 frames
Codec ID                                 : V_MPEG4/ISO/AVC
Duration                                 : 1h 20mn
Bit rate                                 : 2 800 Kbps
Width                                    : 1 280 pixels
Height                                   : 720 pixels
Display aspect ratio                     : 16:9
Frame rate mode                          : Constant
Frame rate                               : 25.000 fps
Color space                              : YUV
Chroma subsampling                       : 4:2:0
Bit depth                                : 8 bits
Scan type                                : Progressive
Bits/(Pixel*Frame)                       : 0.122
Stream size                              : 1.53 GiB (86%)
Writing library                          : x264 core 142 r2479 dd79a61
Encoding settings                        : cabac=1 / ref=3 / deblock=1:0:0 / analyse=0x3:0x113 / me=hex / subme=7 / psy=1 / psy_rd=1.00:0.00 / mixed_ref=1 / me_range=16 / chroma_me=1 / trellis=1 / 8x8dct=1 / cqm=0 / deadzone=21,11 / fast_pskip=1 / chroma_qp_offset=-2 / threads=12 / lookahead_threads=2 / sliced_threads=0 / nr=0 / decimate=1 / interlaced=0 / bluray_compat=0 / constrained_intra=0 / bframes=3 / b_pyramid=2 / b_adapt=1 / b_bias=0 / direct=1 / weightb=1 / open_gop=0 / weightp=2 / keyint=250 / keyint_min=25 / scenecut=40 / intra_refresh=0 / rc_lookahead=40 / rc=abr / mbtree=1 / bitrate=2800 / ratetol=1.0 / qcomp=0.60 / qpmin=0 / qpmax=69 / qpstep=4 / vbv_maxrate=62500 / vbv_bufsize=78125 / nal_hrd=none / filler=0 / ip_ratio=1.40 / aq=1:1.00
Default                                  : Yes
Forced                                   : No
Color range                              : Limited
Color primaries                          : BT.709
Transfer characteristics                 : BT.709
Matrix coefficients                      : BT.709
Statistics Tags Issue                    : mkvmerge v8.5.1 ('Where you lead I will follow') 32bit 2016-01-08 03:13:34 / mkvmerge v8.5.1 ('Where you lead I will follow') 32bit 2016-01-08 03:13:34 / UTC
FromStats_BitRate                        : 2773967
FromStats_Duration                       : 01:20:50.120000000
FromStats_FrameCount                     : 121253
FromStats_StreamSize                     : 1681759249

Audio
ID                                       : 2
Format                                   : AC-3
Format/Info                              : Audio Coding 3
Mode extension                           : CM (complete main)
Format settings, Endianness              : Big
Codec ID                                 : A_AC3
Duration                                 : 1h 20mn
Bit rate mode                            : Constant
Bit rate                                 : 384 Kbps
Channel(s)                               : 2 channels
Channel positions                        : Front: L R
Sampling rate                            : 48.0 KHz
Frame rate                               : 31.250 fps (1536 spf)
Compression mode                         : Lossy
Delay relative to video                  : -5ms
Stream size                              : 222 MiB (12%)
Default                                  : Yes
Forced                                   : No
Statistics Tags Issue                    : mkvmerge v8.5.1 ('Where you lead I will follow') 32bit 2016-01-08 03:13:34 / mkvmerge v8.5.1 ('Where you lead I will follow') 32bit 2016-01-08 03:13:34 / UTC
FromStats_BitRate                        : 384000
FromStats_Duration                       : 01:20:50.144000000
FromStats_FrameCount                     : 151567
FromStats_StreamSize                     : 232806912


Capturas:



Descargar Gratis:


Código:
Uploaded |  MEGA | Mas +
http://tomas01.com/index.php?v=3152
Volver arriba Ir abajo
Ver perfil de usuario
 
La noche del ratón (2013) [BDRip m720p/Castellano] [Thriller] [España] [MEGA]
Ver el tema anterior Ver el tema siguiente Volver arriba 
Página 1 de 1.

Permisos de este foro:No puedes responder a temas en este foro.
Supplive :: Inicio :: Descargas :: Peliculas-
Cambiar a: