Supplive

Comunidad
 
ÍndiceCalendarioFAQBuscarMiembrosGrupos de UsuariosRegistrarseConectarse

Comparte | 
 

 En la Cuerda Floja (The Walk) (2015) [3DFull SBS/Dual Latino-ingles] [Hechos reales] [MEGA]

Ver el tema anterior Ver el tema siguiente Ir abajo 
AutorMensaje
BOT
Usuario Registrado
avatar

Mensajes : 19

MensajeTema: En la Cuerda Floja (The Walk) (2015) [3DFull SBS/Dual Latino-ingles] [Hechos reales] [MEGA]   Jue Ene 07, 2016 11:50 am


Sinopsis:
Doce personas han pisado la Luna, pero únicamente un hombre ha recorrido, o recorrerá jamás, el inmenso vacío entre las dos torres del World Trade Center. Guiado por su mentor en la vida real, Papa Rudy, y ayudado por un insólito grupo de reclutas de todo el mundo, Petit y su banda tendrán que superar obstáculos imposibles, traiciones, disensiones e innumerables situaciones comprometidas para concebir y ejecutar su alocado plan.

Ficha Técnica:
Título original: The Walk
Otos Titulos: En la Cuerda Floja / El Desafío
Año: 2015
Duración: 124 min.
País: Estados Unidos
Director: Robert Zemeckis
Guión: Christopher Browne, Robert Zemeckis (Libro: Philippe Petit)
Música: Alan Silvestri
Fotografía: Don Burgess
Reparto: Joseph Gordon-Levitt, Ben Kingsley, Charlotte Le Bon, James Badge Dale, Clement Sibony, Cesar Domboy, Benedict Samuel, Ben Schwartz, Steve Valentine, Mark Camacho
Productora: ImageMovers / Sony Pictures Entertainment / TriStar Productions
Género: Drama | Basado en hechos reales. 3-D

Trailer:




Datos Técnicos:

3DFull SBS (Lado a Lado) (x264) | MKV | 1920x1080 | 3.85 GB | Dual Latino AC3 5.1 448 Kbps - Ingles AC3 5.1 448 Kbps | Subtitulos: Español, Ingles, etc...

Información
Código:
General
Unique ID                                : 214843373400534285139641448686881735700 (0xA1A1542057FCCD6798E4C978F4A60414)
Complete name                            : En.La.Cuerda.Floja.3DFull.SBS.Latino.Ingles.mkv
Format                                   : Matroska
Format version                           : Version 4 / Version 2
File size                                : 3.85 GiB
Duration                                 : 2h 3mn
Overall bit rate                         : 4 476 Kbps
Encoded date                             : UTC 2016-01-06 02:54:35
Writing application                      : mkvmerge v8.5.1 ('Where you lead I will follow') 32bit
Writing library                          : libebml v1.3.3 + libmatroska v1.4.4

Video
ID                                       : 1
Format                                   : AVC
Format/Info                              : Advanced Video Codec
Format profile                           : High@L4
Format settings, CABAC                   : Yes
Format settings, ReFrames                : 4 frames
Codec ID                                 : V_MPEG4/ISO/AVC
Duration                                 : 2h 3mn
Bit rate                                 : 3 500 Kbps
Width                                    : 1 920 pixels
Height                                   : 1 080 pixels
Display aspect ratio                     : 16:9
Frame rate mode                          : Variable
Frame rate                               : 23.976 (24000/1001) fps
Color space                              : YUV
Chroma subsampling                       : 4:2:0
Bit depth                                : 8 bits
Scan type                                : Progressive
Bits/(Pixel*Frame)                       : 0.070
Stream size                              : 3.01 GiB (78%)
Writing library                          : x264 core 142 r2479 dd79a61
Encoding settings                        : cabac=1 / ref=1 / deblock=1:-1:-1 / analyse=0x3:0x113 / me=hex / subme=2 / psy=1 / psy_rd=1.00:0.15 / mixed_ref=0 / me_range=16 / chroma_me=1 / trellis=0 / 8x8dct=1 / cqm=0 / deadzone=21,11 / fast_pskip=1 / chroma_qp_offset=0 / threads=12 / lookahead_threads=4 / sliced_threads=0 / nr=0 / decimate=1 / interlaced=0 / bluray_compat=0 / constrained_intra=0 / bframes=3 / b_pyramid=2 / b_adapt=1 / b_bias=0 / direct=1 / weightb=1 / open_gop=0 / weightp=1 / keyint=240 / keyint_min=24 / scenecut=40 / intra_refresh=0 / rc_lookahead=10 / rc=2pass / mbtree=1 / bitrate=3500 / ratetol=1.0 / qcomp=0.60 / qpmin=0 / qpmax=69 / qpstep=4 / cplxblur=20.0 / qblur=0.5 / vbv_maxrate=25000 / vbv_bufsize=31250 / nal_hrd=none / filler=0 / ip_ratio=1.40 / aq=1:1.00
Default                                  : Yes
Forced                                   : No
Color range                              : Limited
Color primaries                          : BT.709
Transfer characteristics                 : BT.709
Matrix coefficients                      : BT.709

Audio #1
ID                                       : 2
Format                                   : AC-3
Format/Info                              : Audio Coding 3
Mode extension                           : CM (complete main)
Format settings, Endianness              : Big
Codec ID                                 : A_AC3
Duration                                 : 2h 3mn
Bit rate mode                            : Constant
Bit rate                                 : 448 Kbps
Channel(s)                               : 6 channels
Channel positions                        : Front: L C R, Side: L R, LFE
Sampling rate                            : 44.1 KHz
Frame rate                               : 28.711 fps (1536 spf)
Compression mode                         : Lossy
Stream size                              : 395 MiB (10%)
Language                                 : Spanish
Default                                  : Yes
Forced                                   : No

Audio #2
ID                                       : 3
Format                                   : AC-3
Format/Info                              : Audio Coding 3
Mode extension                           : CM (complete main)
Format settings, Endianness              : Big
Codec ID                                 : A_AC3
Duration                                 : 2h 3mn
Bit rate mode                            : Constant
Bit rate                                 : 448 Kbps
Channel(s)                               : 6 channels
Channel positions                        : Front: L C R, Side: L R, LFE
Sampling rate                            : 44.1 KHz
Frame rate                               : 28.711 fps (1536 spf)
Compression mode                         : Lossy
Stream size                              : 395 MiB (10%)
Language                                 : English
Default                                  : No
Forced                                   : No

Text #1
ID                                       : 4
Format                                   : PGS
Muxing mode                              : zlib
Codec ID                                 : S_HDMV/PGS
Codec ID/Info                            : Picture based subtitle format used on BDs/HD-DVDs
Duration                                 : 1h 53mn
Bit rate                                 : 11.1 Kbps
Count of elements                        : 3494
Stream size                              : 9.04 MiB (0%)
Language                                 : English
Default                                  : No
Forced                                   : No

Text #2
ID                                       : 5
Format                                   : PGS
Muxing mode                              : zlib
Codec ID                                 : S_HDMV/PGS
Codec ID/Info                            : Picture based subtitle format used on BDs/HD-DVDs
Duration                                 : 1h 53mn
Bit rate                                 : 9 205 bps
Count of elements                        : 2970
Stream size                              : 7.50 MiB (0%)
Language                                 : English
Default                                  : No
Forced                                   : No

Text #3
ID                                       : 6
Format                                   : PGS
Muxing mode                              : zlib
Codec ID                                 : S_HDMV/PGS
Codec ID/Info                            : Picture based subtitle format used on BDs/HD-DVDs
Duration                                 : 1h 56mn
Bit rate                                 : 7 811 bps
Count of elements                        : 3026
Stream size                              : 6.50 MiB (0%)
Language                                 : Chinese
Default                                  : No
Forced                                   : No

Text #4
ID                                       : 7
Format                                   : PGS
Muxing mode                              : zlib
Codec ID                                 : S_HDMV/PGS
Codec ID/Info                            : Picture based subtitle format used on BDs/HD-DVDs
Duration                                 : 1h 54mn
Bit rate                                 : 9 573 bps
Count of elements                        : 2996
Stream size                              : 7.81 MiB (0%)
Language                                 : Chinese
Default                                  : No
Forced                                   : No

Text #5
ID                                       : 8
Format                                   : PGS
Muxing mode                              : zlib
Codec ID                                 : S_HDMV/PGS
Codec ID/Info                            : Picture based subtitle format used on BDs/HD-DVDs
Duration                                 : 1h 56mn
Bit rate                                 : 8 409 bps
Count of elements                        : 3024
Stream size                              : 6.99 MiB (0%)
Language                                 : Chinese
Default                                  : No
Forced                                   : No

Text #6
ID                                       : 9
Format                                   : PGS
Muxing mode                              : zlib
Codec ID                                 : S_HDMV/PGS
Codec ID/Info                            : Picture based subtitle format used on BDs/HD-DVDs
Duration                                 : 2h 1mn
Bit rate                                 : 6 377 bps
Count of elements                        : 2434
Stream size                              : 5.55 MiB (0%)
Language                                 : French
Default                                  : No
Forced                                   : No

Text #7
ID                                       : 10
Format                                   : PGS
Muxing mode                              : zlib
Codec ID                                 : S_HDMV/PGS
Codec ID/Info                            : Picture based subtitle format used on BDs/HD-DVDs
Duration                                 : 2h 1mn
Bit rate                                 : 8 103 bps
Count of elements                        : 3038
Stream size                              : 7.04 MiB (0%)
Language                                 : Indonesian
Default                                  : No
Forced                                   : No

Text #8
ID                                       : 11
Format                                   : PGS
Muxing mode                              : zlib
Codec ID                                 : S_HDMV/PGS
Codec ID/Info                            : Picture based subtitle format used on BDs/HD-DVDs
Duration                                 : 1h 56mn
Bit rate                                 : 5 984 bps
Count of elements                        : 2948
Stream size                              : 4.98 MiB (0%)
Language                                 : Korean
Default                                  : No
Forced                                   : No

Text #9
ID                                       : 12
Format                                   : PGS
Muxing mode                              : zlib
Codec ID                                 : S_HDMV/PGS
Codec ID/Info                            : Picture based subtitle format used on BDs/HD-DVDs
Duration                                 : 2h 1mn
Bit rate                                 : 7 799 bps
Count of elements                        : 2954
Stream size                              : 6.79 MiB (0%)
Language                                 : Spanish
Default                                  : No
Forced                                   : No

Text #10
ID                                       : 13
Format                                   : PGS
Muxing mode                              : zlib
Codec ID                                 : S_HDMV/PGS
Codec ID/Info                            : Picture based subtitle format used on BDs/HD-DVDs
Duration                                 : 1h 56mn
Bit rate                                 : 6 307 bps
Count of elements                        : 3022
Stream size                              : 5.25 MiB (0%)
Language                                 : Thai
Default                                  : No
Forced                                   : No

Text #11
ID                                       : 14
Format                                   : PGS
Muxing mode                              : zlib
Codec ID                                 : S_HDMV/PGS
Codec ID/Info                            : Picture based subtitle format used on BDs/HD-DVDs
Duration                                 : 1h 26mn
Bit rate                                 : 72 bps
Count of elements                        : 20
Stream size                              : 45.7 KiB (0%)
Language                                 : French
Default                                  : No
Forced                                   : No

Capturas:


Uploaded |  MEGA | Mas +
DESCARGAR CLICK AQUI
Volver arriba Ir abajo
Ver perfil de usuario
 
En la Cuerda Floja (The Walk) (2015) [3DFull SBS/Dual Latino-ingles] [Hechos reales] [MEGA]
Ver el tema anterior Ver el tema siguiente Volver arriba 
Página 1 de 1.

Permisos de este foro:No puedes responder a temas en este foro.
Supplive :: Inicio :: Descargas :: Peliculas-
Cambiar a: