Supplive

Comunidad
 
ÍndiceCalendarioFAQBuscarMiembrosGrupos de UsuariosRegistrarseConectarse

Comparte | 
 

 Pan: Viaje a Nunca Jamás (2015) [BRScreener 1080p/Castellano] [Fantástico] [MEGA]

Ver el tema anterior Ver el tema siguiente Ir abajo 
AutorMensaje
BOT
Usuario Registrado
avatar

Mensajes : 19

MensajeTema: Pan: Viaje a Nunca Jamás (2015) [BRScreener 1080p/Castellano] [Fantástico] [MEGA]   Jue Dic 31, 2015 12:12 pm


Sinopsis:
Peter es un chico de 12 años con una irreprimible vena rebelde. En el sombrío orfanato de Londres en el que ha vivido toda su vida, esa cualidad no es precisamente muy deseable. Entonces, en el curso de una noche increíble, Peter se ve transportado desde el orfanato y aparece en un mundo fantástico de piratas, guerreros y hadas llamado Nunca Jamás. Allí, se enfrenta a sorprendentes aventuras y combates a vida o muerte mientras intenta descubrir el secreto de su madre, que le dejó en el orfanato hace mucho tiempo, y el lugar que le corresponde en esa tierra mágica. En compañía de la guerrera Tigrilla y de un nuevo amigo llamado Capitán Garfio, Peter debe derrotar al implacable pirata Barbanegra para salvar el país de Nunca Jamás y descubrir su auténtico destino: convertirse en el héroe que será conocido para siempre con el nombre de Peter Pan.

Ficha Técnica:
Título original: Pan
Otos Titulos: Pan: Viaje a Nunca Jamás / Peter Pan
Año: 2015
Duración: 111 min.
País: Estados Unidos
Director: Joe Wright
Guión: Jason Fuchs (Personajes: J.M. Barrie)
Música: John Powell
Fotografía: John Mathieson, Seamus McGarvey
Reparto: Levi Miller, Garrett Hedlund, Hugh Jackman, Rooney Mara, Amanda Seyfried, Adeel Akhtar, Nonso Anozie, Cara Delevingne, Kathy Burke, Jack Lowden, Jimmy Vee, Phill Martin, Ami Metcalf, Jack Charles
Productora: Berlanti Productions / Dune Entertainment; Distribuida por Warner Bros.
Género: Fantástico. Acción. Aventuras | Cuentos. 3-D. Precuela


Trailer:


Datos Técnicos:
BRScreener 1080p (x264) | MKV | 1920x800 | 7.35 GB | Castellano MiC Xtreme HQ 256kbps

Información
Código:
General
Unique ID                   : 212334058728036220251208173089583217671 (0x9FBE0D5C706F8D92B6EBF27FC4F33C07)
Complete name               : Pan.BRS.1080p.Castellano.mkv
Format                      : Matroska
Format version              : Version 4 / Version 2
File size                   : 7.35 GiB
Duration                    : 1h 51mn
Overall bit rate            : 9 433 Kbps
Encoded date                : UTC 2015-12-28 12:54:04
Writing application         : mkvmerge v8.5.1 ('Where you lead I will follow') 32bit
Writing library             : libebml v1.3.3 + libmatroska v1.4.4
DURATION                    : 01:51:32.179000000
NUMBER_OF_FRAMES            : 256185
NUMBER_OF_BYTES             : 214149747
_STATISTICS_WRITING_APP     : mkvmerge v8.5.1 ('Where you lead I will follow') 32bit
_STATISTICS_WRITING_DATE_UT : 2015-12-28 12:54:04
_STATISTICS_TAGS            : BPS DURATION NUMBER_OF_FRAMES NUMBER_OF_BYTES

Video
ID                          : 1
Format                      : AVC
Format/Info                 : Advanced Video Codec
Format profile              : High@L4.1
Format settings, CABAC      : Yes
Format settings, ReFrames   : 5 frames
Codec ID                    : V_MPEG4/ISO/AVC
Duration                    : 1h 51mn
Bit rate                    : 9 181 Kbps
Width                       : 1 920 pixels
Height                      : 800 pixels
Display aspect ratio        : 2.40:1
Frame rate mode             : Constant
Frame rate                  : 23.976 fps
Color space                 : YUV
Chroma subsampling          : 4:2:0
Bit depth                   : 8 bits
Scan type                   : Progressive
Bits/(Pixel*Frame)          : 0.249
Stream size                 : 7.00 GiB (95%)
Writing library             : x264 core 148 r2638 7599210
Encoding settings           : cabac=1 / ref=5 / deblock=1:0:0 / analyse=0x3:0x133 / me=umh / subme=7 / psy=1 / psy_rd=1.00:0.00 / mixed_ref=1 / me_range=16 / chroma_me=1 / trellis=1 / 8x8dct=1 / cqm=0 / deadzone=21,11 / fast_pskip=0 / chroma_qp_offset=-2 / threads=18 / lookahead_threads=3 / sliced_threads=0 / nr=0 / decimate=1 / interlaced=0 / bluray_compat=0 / constrained_intra=0 / bframes=3 / b_pyramid=2 / b_adapt=1 / b_bias=0 / direct=1 / weightb=1 / open_gop=0 / weightp=2 / keyint=250 / keyint_min=23 / scenecut=40 / intra_refresh=0 / rc_lookahead=40 / rc=2pass / mbtree=1 / bitrate=9181 / ratetol=1.0 / qcomp=0.60 / qpmin=0 / qpmax=69 / qpstep=4 / cplxblur=20.0 / qblur=0.5 / ip_ratio=1.40 / aq=1:1.00
Language                    : Spanish
Default                     : Yes
Forced                      : No
DURATION                    : 01:51:32.030000000
NUMBER_OF_FRAMES            : 160448
NUMBER_OF_BYTES             : 7674853292
_STATISTICS_WRITING_APP     : mkvmerge v8.5.1 ('Where you lead I will follow') 32bit
_STATISTICS_WRITING_DATE_UT : 2015-12-28 12:54:04
_STATISTICS_TAGS            : BPS DURATION NUMBER_OF_FRAMES NUMBER_OF_BYTES

Audio
ID                          : 2
Format                      : MPEG Audio
Format version              : Version 1
Format profile              : Layer 3
Codec ID                    : A_MPEG/L3
Codec ID/Hint               : MP3
Duration                    : 1h 51mn
Bit rate mode               : Constant
Bit rate                    : 256 Kbps
Channel(s)                  : 2 channels
Sampling rate               : 44.1 KHz
Compression mode            : Lossy
Stream size                 : 204 MiB (3%)
Language                    : Spanish
Default                     : Yes
Forced                      : No

Menu
00:00:00.000                : en:00:00:00.000
00:10:28.419                : en:00:10:28.419
00:19:45.851                : en:00:19:45.851
00:31:07.282                : en:00:31:07.282
00:39:14.060                : en:00:39:14.060
00:48:27.863                : en:00:48:27.863
01:00:07.562                : en:01:00:07.562
01:09:29.374                : en:01:09:29.374
01:20:12.808                : en:01:20:12.808
01:30:02.897                : en:01:30:02.897
01:39:51.027                : en:01:39:51.027
01:43:05.888                : en:01:43:05.888

Capturas:


Descargar Gratis:

Información escribió:
Uploaded |  MEGA | Mas +
DESCARGAR CLICK AQUI
Volver arriba Ir abajo
Ver perfil de usuario
 
Pan: Viaje a Nunca Jamás (2015) [BRScreener 1080p/Castellano] [Fantástico] [MEGA]
Ver el tema anterior Ver el tema siguiente Volver arriba 
Página 1 de 1.

Permisos de este foro:No puedes responder a temas en este foro.
Supplive :: Inicio :: Descargas :: Peliculas-
Cambiar a: